HDMI, as you probably know, outputs audio and video from a Blu-ray player, for example, into the HDMI input of your TV, for example, which receives and processes the input. Music tools. The Elgato HD60 S is a clever little black box that can capture what is happening, right here, right now, right on your monitor. With advanced hardware H. Discover the innovative world of Apple and shop everything iPhone, iPad, Apple Watch, Mac, and Apple TV, plus explore accessories, entertainment, and expert device support. With Elgato Game Capture HD60 Pro, stunning 1080p capture with 60 fps is only the beginning. Hey I was using the original OBS and used the elgato HD60, The Elgato has a delay to the game so my mic and cam were not synced. Resolutions up to 1920×1080 with 60hz and recording at 60fps are supported. Essentially this means that in theory you should be able to play all of your console games from your PC through the capture software without delay due to input lag. The Unreal Arena 2. The Elgato Game Capture HD60 is an excellent example of what was once high-end 'prosumer' technology - in this case 1080p60 HD capture - filtering down into an accessible consumer-level device. With HD60 Pro, stunning 1080p capture with 60 fps is only the beginning. Experience unlimited game capture right to your PC with the Elgato HD60 S. Universe Zen Audio. 7 aylar önce. Got my hands on the Elgato HD60 S+. Die elgato hd60 pro kann nur 2 k , das heißt das euer Gaming Monitor auf 2 k ebenfalls begrenzt wird beim zocken!!!!! Ich habe 3 k Monitor und möchte selbstverständlich mit 3 k Auflösung spielen. I've been streaming for over two years now. No tedious setup or complicated software. Med detta kort kan du spela in ditt gameplay i perfekt kvalitet 1080p upplösning och 60fps. HD60 S+ gets you live on any platform in record time, streaming in superb 1080p resolution at a fluid 60 fps. 0 4,5 su 5 stelle 1. No audio on elgato hd60 pro & 4k60 pro fix (OBS & ELGATO SOFTWARE) 5 03:59. Before purchasing the card though, knowing that the card will produce some delay in the Video / Audio feed to the computer, I was a bit concerned about the game Audio delay. g devices, for Windows 7, 8, and 8. 0 PCIe x4 PlayStation 4, Xbox One & Xbox 360, Nintendo Switch & Wii U PlayStation 4, Xbox One & Xbox 360, Wii U (Unencrypted HDMI) PlayStation 4, Xbox One & Xbox 360, Unencrypted HDMI HDMI (latency-free pass-through) HDMI (delay-free pass-through) up to 1080p60. Tutorial: How To Fix The Elgato HD60 Audio Delay! (Syncing Audio). The Hotone Audio company is highly invested in the development of its employees, is motivated by Ampero is powered by a huge dual-DSP platform running Hotone's proprietary CDCM HD & F. Get great deals on Elgato Gaming & DVD (L | Xbox Series S) at very. Jetzt bequem online bestellen. ArtistAnimation(fig, ims, interval=50, repeat_delay cpb: bitrate max/min/avg: 0/0/0 buffer size: 0 vbv_delay: -1 Stream #0:1(eng): Audio: aac (LC) time=00:00:08. Spoilers: It's definitely our game capture device of choice!. Review: Elgato HD60 S. Stream and record your finest gaming moments with HD 60 S, and leverage the perfect foundation to showcase what you're really capable of. tv/ecugopirates. Immortalized. 95 postage. Elgato HD60 Pro, Capturas a 1080p y retransmisión directa sin retardo, tarjeta de captura del PCIe, una tecnología superior de baja latencia, PS5, PS4, Xbox Series X/S, Xbox One: Amazon. Lighting & Studio. 0 type C connection - Built-in live streaming to Twitch, YouTube & more - Stream Command: add webcam, overlays, and more. axis('off'). I have an audio or video delay happen while OBS is either streaming or just left open for a long time ie: an hour or longer. Looking for the best Video Game Recorder is not an easy task and one of the best game recorder is the HD60s, because of it's features that you can record But there is a problem when you tried recording hours of gameplay, Elgato seems doesn't properly sync the audio when you're recording a long video. at the best online prices at eBay! Free shipping for many products!. g devices, for Windows 7, 8, and 8. It's important to pay Audio travels faster than video so you'll have to delay the audio via the advanced audio properties of the audio source in OBS. Elgato HD software, s new functions, n64. \\r\\r♥ PATREON CAMPAIGN! \\r♥ Steam Curator Page \\r♥ SUBSCRIBE! \\r♥ - Join our AWESOME community forums!\\r♥ T-shirts! \\r Stys. Before purchasing the card though, knowing that the card will produce some delay in the Video / Audio feed to the computer. * AVISO IMPORTANTE * - Te recomendamos leer toda la descripcion del produco, ver las fotos y el video que se encuentra al final de las fotos, ya que de esa manera despejarás todas tus dudas. Which is the highest possible frame rate in resolution than a Nintendo Switch can do? Elgato game capture hd60 is an important element of how to stream Nintendo Switch questions. Elgato Game Capture HD60 was created with the next generation of gaming in mind. #elgato #capturecard #hd60 Elgato HD60S Audio and Video Issue Fix - Popping and Crackling. 0 e ad una totale compatibilità con le applicazioni streaming più all'avanguardia, tra cui OBS Studio, Streamlabs OBS e XSplit. 0, and the latter is for attaching an audio device for commentary. O delay é pequeno. Elgato Game Capture HD enables you to record and stream Xbox, PlayStation or Wii U gameplay and share it with your friends and fans. I have an audio or video delay happen while OBS is either streaming or just left open for a long time ie: an hour or longer. Migliaia di offerte su chitarre, batterie, tastiere, prodotti per DJ, home recording, spartiti, impianti audio, luci e forniture a negozi ai migliori prezzi. Recensione Elgato HD60 S. How to Fixed Elgato HD60s Audio Out of Sync (Adobe After Effect) Import your video files to your Adobe After Effect timeline. If you’re serious about streaming, then this is the one you should get even though it is expensive. And the setting you are talking about is audio buffering, not audio delay. 0 Ser mais rápido e eficiente muda tudo. Elgato HD60 Pro audio desync/delay with PS4 Question So I have an issue with the game audio desyncing/delay after about 40 min of recording or streaming with my PS4, the audio is about 0,5 sec behind the picture. Halten Sie Ihre besten Momente mit HD60 S in perfekter 1080p Qualität mit 60 Bildern pro Sekunde fest. The gameplay is passed through to the TV via HDMI – in pristine quality, without delay. Die elgato hd60 pro kann nur 2 k , das heißt das euer Gaming Monitor auf 2 k ebenfalls begrenzt wird beim zocken!!!!! Ich habe 3 k Monitor und möchte selbstverständlich mit 3 k Auflösung spielen. First off I'll say that I did have audio issues at first I think Elgato have been incredibly unlucky with the timing of release for the card, with various I returned to my HD60. Adjusting Audio Delay in XSplit Broadcaster. That was synced up, but as it goes further the audio gets more and more out of sync. ELGATO HD60 S Gaming HD Capture Recorder Streamer Model: 2GC309901004 + Cables. Stream and record Xbox, PlayStation, or Wii U gameplay with Elgato Game Capture HD60 Pro. Analog Audio In This connects to an analog audio source, using an 3. LEWITT AUDIO INSIDE Headquartered in Vienna, Austria, LEWITT Audio subjects its microphones to rigorous calibration and quality control in world-class testing facilities with seasoned sound engineers. Can't figure out the problem". 4) In the Audio Settings, check the "Delay" box under "System Sound" and "Microphone" and set the value for both to 650ms, which is the average delay of the Elgato Game Capture HD60. fr Livraison & retours gratuits possibles (voir conditions). 5 secs with the elgato hd60. It is implemented as an Audio Processing Object (APO) for the system effect Absolutely fantastic piece of software. The audio from that does not match the game even though I aligned it at the start with my audio test. The Elgato HD60 gaming capture card, captures gameplay via HDM1 in and out. Flashback Recording: slide back in time to save epic moments retroactively. However, the 32 bit crashes everytime because my Razer Kraken's are apparently incompatible with the software and it wants me to disable them (which I'd prefer not to do, since its my only source of audio). You can stream and record your finest gaming moments at a stunning 1080p HD quality at an impressive 60 frames per second, with the innovative. ELGATO HD60 S Gaming HD Capture Recorder Streamer Model: 2GC309901004 + Cables. Product SKU. Elgato Stream Deck XL - Enhanced Stream Control with 32 Customizable LCD Keys for Windows 10 and MacOS 10. 1 Plug one end of an HDMI Cable into the HDMI OUT port of the desktop PC's graphics card. (89) 89 product ratings - Elgato HD60 Game Capture Next Generation Gameplay Sharing USB 2. I have recently purchased an Elgato capure card that I am using to stream and record Vainglory games from my iPad and iPhone. 682 il #1 più venduto in Schede TV esterne. Elgato HD60 S+ Capture Card1080p60 HDR10 Capture, 4K60 HDR10 Zero-lag passthrough, Ultra-Low Latency, PS5, PS4/Pro, Xbox Series X/S, Xbox One X/S, USB 3. Graças à sua USB-C-art reversível, com o HD60 S Graças à sua USB-C-art reversível, com o HD60 S não tem que pensar duas vezes. Read the definitive guide of hi-res audio (HD music) : Where are the free download and online streaming sites? Is high resolution really bring highest sound quality? Is upsampling reasonable? Hi-Res vs 44. 8) Turn on your computer. in app to set audio delays which was a prerequisite to adding USB 2. When we calculate RT60 we need to remember that this is the total time taken in milliseconds for the reverb Inserting a reverb plugin directly to an audio track is the quickest way to add a reverb effect, but greatly limits your ability to process the source audio. Der sprachton bleibt allerdings gleich. Allerdings gibt es wenn ich zmb. Elgato Game Capture HD60 In OBS, adjust the "Audio Delay" to bring the timing of the audio precisely in with the video. Sound Recording. Elgato Game Capture HD60 connects to your computer using USB 2. You can download it from here check the "Delay" box under "System Sound" and "Microphone" and set the value for both to 650ms, which is the average delay of the Elgato Game Capture HD60. This number can vary based on the sources resolution, frame rate and setups. Clearance Centre × Showing Search Results for: elgato ring light Page 1 of 2 1 to 12 of 19 Records. Elgato-hd60s+. HD60 S+ gets you live on any platform in record time, streaming in superb 1080p resolution at a fluid 60 fps. I hope you enjoyed the video. Elgato HD60 s - my elgato capture device will not connect fully. No audio on elgato hd60 pro & 4k60 pro fix (OBS & ELGATO SOFTWARE). Instant Gameview feeds your stream with no delay, while simultaneous H. RACK - Tuner, Delay, Equalizer, Reverb - Essential tools for getting that quick, good tone. 2 14,329 ¥19,423. 264 Audio Input Support. Dual PC Stream setup + Elgato HD60 S | High--Quality Stream tutorial. 0 port to use the Elgato. Experience unlimited game capture right to your PC with the Elgato HD60 S. Find helpful customer reviews and review ratings for Elgato Game Capture HD60 S - stream, record and share your gameplay in 1080p60, superior low latency technology, USB 3. Streamlabs OBS Audio Delay - How to FIX Audio Delay for Streamers (OBS too). Elgato hd60s unopened! - $60 (Lansing). 264 encoder that enables you to record unlimited footage in superb 1080p60 quality, at a bitrate up to 60Mbps. Enjoy the best sound possible for movies, music, and TV shows with Dolby TrueHD lossless audio built into your home theater, music, movies, and other Unlike most audio formats, Dolby® TrueHD is 100 percent lossless. 264 compression chip in the Elgato Game Capture HD60 hardware. (89) 89 product ratings - Elgato HD60 Game Capture Next Generation Gameplay Sharing USB 2. AUDIO CAPTURE STREAM DECK KEY LIGHT GREEN SCREEN MULTI MOUNT. es: Informática. 7) Reassemble the computer's tower case and plug your cables back in. If you run it through the elgato program there is audio delay and more video lag. We’ve been using it for weeks now and can’t recommend it enough. Hello, I just purchased an Elgato HD60 for game capture. Come be a part of it. aspx?manuf_id=114. HD60 S+ lets you play your high-fidelity console games in stunning 4K60 HDR10, while capturing your gameplay in superb 1080p60 HDR10 quality. Today's video is how to fix the audio delay that is on the elgato HD 60, this will fix it so when ever. Elgato Stream Deck XL - Enhanced Stream Control with 32 Customizable LCD Keys for Windows 10 and MacOS 10. This method will also work with Xsplit. Lighting & Studio. These drivers are designed for software that was released a few years ago. The calculation is quite simple, but a tool like this can help you visualize. Give the tempo and the time signature. You will be able to stream with low latency and add your live commentary while playing. In this I show you guys how to setup your audio from both your streaming PC and Gaming PC to a single headset and how to get it. VISUALIZACIÓN INSTANTÁNEA - Streaming al instante El HD60 S dispone de una conexión fiable USB 3. This is audio line in, and not a microphone port. LEWITT AUDIO INSIDE Headquartered in Vienna, Austria, LEWITT Audio subjects its microphones to rigorous calibration and quality control in world-class testing facilities with seasoned sound engineers. No tedious setup or complicated software. D-RayEntertainment. The HD60 uses a pass through technology for the video transfer via HDMI which is important for two reasons. Elgato - How to Fix Audio Going Out of Sync in Premiere Pro (Tutorial). With decades of experience in audio visual technology, Elgato engineers premium capture cards, microphones, broadcast controllers, mounting solutions, and studio accessories that empower anyone to produce professional content for worldwide audiences on Twitch, YouTube and Facebook. Instant Gameview feeds your stream with no delay, while simultaneous H. It connects to your computer using USB 3. Toote vastavus: Elgato Game Capture HD60 Pro (PCIe). Stream and record, instantly. Share your finest gaming moments with the Elgato HD60 S Console Game Capture Card. Sorry if this is poorly explained, but basiclly i have HD60 connected to a monitor without speakers, HD60 connected to PS4 & PC, Headset plugged into PC to capture sound through "Output Desktop Audio (WaveOut). Twitter - https://www. I don't have any filters, and the audio settings match an additional audio source playing an MP3 (which does not exhibit the same problems). Share your finest gaming moments with the Elgato HD60 S Console Game Capture Card. De Elgato HD60 S is een game capture met streaming als specialiteit. Elgato'nun yeni ürünü Game Capture HD60 ise -adından da anlaşılacağı üzere- 60fps görüntü alınmasına imkan tanıyor. While the word "delay" in real life is perceived as something bad, the musical delay is among the favorite effects of musicians and sound engineers! Here, you will find out all the best delay plugins currently on the market, to save you time and money from searching hopelessly!. ArtistAnimation(fig, ims, interval=50, repeat_delay cpb: bitrate max/min/avg: 0/0/0 buffer size: 0 vbv_delay: -1 Stream #0:1(eng): Audio: aac (LC) time=00:00:08. Elgato Game Capture HD60 S Elgato Game Capture 4K60 Pro PCIe x1 USB 3. Default advanced options reduce the video size to 60% of the original. Resolutions up to 1920×1080 with 60hz and recording at 60fps are supported. If you run it through the elgato program there is audio delay and more video lag. In some instances you might need to add an audio delay to sync up the video from a camera with a microphone input. AUDIO CAPTURE STREAM DECK KEY LIGHT GREEN SCREEN MULTI MOUNT. HDMI, as you probably know, outputs audio and video from a Blu-ray player, for example, into the HDMI input of your TV, for example, which receives and processes the input. I've googled this, Reddit old How are you using the HD60 Pro inside of OBS? Is it through the "Elgato Game Capture HD" device? Try downloading the current HD60 Pro driver: https. Shop online for all your home improvement needs: appliances, bathroom decorating ideas, kitchen remodeling, patio furniture, power tools, bbq grills, carpeting, lumber, concrete, lighting, ceiling fans and more at The Home Depot. Oyun videolarınızı kaydetmek için birden çok seçeneğiniz var. Audio delay, or audio lag is a common issue for gamers who are streaming online from their console to pc through a video capture device like the Elgato HD60 S. hd60 | hd60s | hd60 pro | hd60s drivers | hd600 for gaming | hd60 elgato | hd60s macbook | hd60s+ video delay | hd600 vs 6xx | hd60 pro elgato | hd60 vs hd60s |. Heisst ich drücke auf der Playstation eine Taste und Elgato zeigt dies allerdings erst nach etwa 4 Sekunden an. Follow our step-by-step guide below. Note: I primarily use the Elgato Game Capture HD60 for recording since it can record at 1080p 60FPS at a high bitrate. Perfect quality With HD60 Pro, stunning 1080p capture with 60 fps is only the beginning. The 6 Best Elgato Game Capture of 2020 1,805 Ratings 5/5 Share on facebook Facebook Share on google Google+ Share on twitter Twitter Share on linkedin LinkedIn Elgato Game Capture HD60 S – Stream and Record in 1080p60, for PlayStation 4, Xbox One & Xbox 360 Stream and record your finest gaming moments Stunning […]. Thankfully, the Elgato Elgato 4K60 Pro is worth the hassle. I am using an Elgato HD60 (original version). When you make the jump to an internal card, take a look at the Game Capture HD60 from Elgato instead. The new Instant Gameview feature gives you a reliable, high-performance USB 3. The Elgato HD60 S is a clever little black box that can capture what is happening, right here, right now, right on your monitor. O delay é pequeno. Elgato Game Capture HD60 Pro. 5 secs with the elgato hd60. Aber eignet sich die HD60 auch fürs Meistens nehme ich mit der Elgato Software auf und finde, dass das Delay mittlerweile wirklich absolut minimal ist und kaum mehr sichtbar. The main difference between the HD60 and HD60 S is that the S has the lowest delay between the game on your TV and the preview on your computer. Model 1GC109901004. Achetez Elgato HD60 Pro, Capture 1080p60 avec Pass-Through, Carte d’Acquisition PCIe, Technologie à Faible Latence, PS5, PS4, Xbox Series X/S, Xbox One: Amazon. Twitter - https://www. Tips, tricks, anecdotes, and walkthroughs – it doesn’t matter. Elgato Game Capture 4K60 S+ has a delay of around 200ms. 0, and the latter is for attaching an audio device for commentary. First off, it means that there is practically zero lag. Camcorders. LEWITT AUDIO INSIDE Headquartered in Vienna, Austria, LEWITT Audio subjects its microphones to rigorous calibration and quality control in world-class testing facilities with seasoned sound engineers. Elgato Game Capture HD – Elgato. I started with an Elgato HD60, then an HD60 Pro and now an AVM LGHD2. 17 $ 3,746. Looking for the best Video Game Recorder is not an easy task and one of the best game recorder is the HD60s, because of it's features that you can record But there is a problem when you tried recording hours of gameplay, Elgato seems doesn't properly sync the audio when you're recording a long video. Микрофоны и PRO Audio. if youre a streamer, then low latency is perhaps more important than offloading some of. Su puesta en marcha es Características y ventajas de la capturadora ELgato Game Capture HD60S: Ofrece una espectacular calidad de grabación y streaming en vídeo a Full HD. 0 4,5 su 5 stelle 1. Earmuffs with new protein material, light and comfortable, durable with no *Hi-Res Audio is a high-quality audio product design standard developed by JAS (Japan Audio Association) and CEA (Consumer Electronics Association). Elgato Game Capture HD60 S - Gameplay in 1080p60 streamen, aufnehmen und Teilen, Low Latency Technologie USB 3. HOW to sync audio and video with the ELGATO (2019) NEW*. Instant Gameview feeds your stream with no delay, while simultaneous H. append([im]). Dual PC Stream setup + Elgato HD60 S | High--Quality Stream tutorial. Music tools. I tried delaying the mic from anywhere between 650-1400 as well as adding a video filter on my webcam to match. 2 a dud or just incompatible? Components: 0: Jan 1, 2021: B: Question PC crashes on Boot after installing PCI capture card (Elgato 4K60 PRO) ? Components: 3: Dec 23, 2020: V: Question Elgato Audio Delay: Components: 0: Jun 22, 2020: Z: Question Elgato vanishes then comes back or works when changing slots. In October 2014 Elgato released a new version called HD 60. With HD60 Pro, stunning 1080p capture with 60 fps is only the beginning. You'll be able to share your best gaming moments with friends and followers with the Elgato HD60S Capture Card. 1 Plug one end of an HDMI Cable into the HDMI OUT port of the desktop PC's graphics card. Delay Lama is the first software synthesizer that features both vocal synthesis and a real-time 3D animated interface, which dynamically reacts to musical gestures from the user. Instant Gameview feeds your stream with no delay, while simultaneous H. It¿s that simple. 4) In the Audio Settings, check the "Delay" box under "System Sound" and "Microphone" and set the value for both to 650ms, which is the average delay of the Elgato Game Capture HD60. The Elgato HD60 S tested today (now Elgato belongs to Corsair) is virtually the new edition of the Elgato 60, but does not have an H. Elgato hd60 pro software. Interest is calculated and compounded daily at a typical rate of 44. Um problema é colocar o bate papo da galera no jogo. Power your workflow with ultra low latency Instant Gameview technology. Today's video is how to fix the audio delay that is on the elgato HD 60, this will fix it so when ever your streaming or doing. It includes the same excellent features seen on the HD60 S, including Flashback Recording, as well as passthrough at up to 1080p240 or. Question / Help Audio problem Dual pc Elgato hd60 pro, help! Thread starter Crises; Start date Jun 10, 2018; Tags audio problem elgato delay elgato obs; C. The built-in Live Streaming feature gets you up and running on Twitch and YouTube in a snap. That was synced up, but as it goes further the audio gets more and more out of sync. Die HD60 hingegen besitzt ja die in der HD60s fehlende Technik und soll so besser geeignet sein für reine Aufnahmen. 1 Plug one end of an HDMI Cable into the HDMI OUT port of the desktop PC's graphics card. Elgato Audio Capturing Within Streamlabs OBS. I disabled allowing 60fps and lowered the quality and there is still a delay and the video is choppy. Yet, from time to time I find it necessary to capture direct feed video straight from source. The Elagto HD60 S hooks up within. You're always going to have a delay time between 1 to 1. - Stream and record your finest moments - Stunning 1080p quality with 60 fps - State-of-the-art USB 3. OBS Elgato HD60 Pro Audio Delay Fix. In tegenstelling tot de HD60 streamt de HD60 S (bijna) zonder enige vertraging. Stunning 1080p quality with 60 fpsState-of-the-art USB 3. Other audio and video sources in streaming applications must be delayed by around 200ms to match the gameplay video and audio of the Elgato Game Capture 4K60 S+. HD60 S is an external solution that gets you capturing superb 1080p60 gameplay in a snap. Die Sony a6000 wurde mit einem Micro HDMI Kabel mit der Elgato HD60 verbunden und von dort aus mit dem standardmäßigen USB Kabel in den PC gesteckt worden. The audio from that does not match the game even though I aligned it at the start with my audio test. De Elgato HD60 S is een game capture met streaming als specialiteit. Um problema é colocar o bate papo da galera no jogo. HOW to sync audio and video with the ELGATO (2019) NEW*. مع قطعة الالقاتو سوف تتمكن من تسجيل وعمل بث مباشر لاجهزة الاكسبوكس والبلايستيشن لتشارك رحلتك مع اصحابك وجماهيرك. Understanding Pre-delay, decay time & RT60. AUDIO CAPTURE STREAM DECK KEY LIGHT GREEN SCREEN MULTI MOUNT. Dieser HDMI over cat6/5 Extender unterstützt Bi-direktionales IR mit bis zu 60Khz (IR über ethernet / IR über HDMI), Dolby TrueHD, DTS Master Audio und Deep Color. The gaming experience is all about sharing. Elgato Game Capture HD60 S+ 1080p60 HDR10 Capture with 4K60 HDR10 Zero-lag passthrough, Ultra-Low Latency Technology. I hope you enjoyed the video. Verbindet high speed HDMI auf HDMI Kabel und sichert Full HD und 3D Lösungen und HDMI verlustfreie Übertragung. Here is a log from my last session. Sound Recording. - Al comprar, aceptás todos los terminos y condiciones establecidos por MercadoLibre. The picture and audio quality is superb, it’s very compatible with other streaming software, and there’s absolutely no input lag whatsoever in the pass through. LEWITT AUDIO INSIDE Headquartered in Vienna, Austria, LEWITT Audio subjects its microphones to rigorous calibration and quality control in world-class testing facilities with seasoned sound engineers. 0, and relies on both the CPU and graphics card for the best possible performance. Immortalized. We recommend you opt for Express Post as these. Elgato Game Capture HD60 S Elgato Game Capture 4K60 Pro PCIe x1 USB 3. Elgato HD60 S+ Capture Card1080p60 HDR10 Capture, 4K60 HDR10 Zero-lag passthrough, Ultra-Low Latency, PS5, PS4/Pro, Xbox Series X/S, Xbox One X/S, USB 3. Live stream to Twitch or YouTube while recording 4K HDR10 footage to your hard drive. 0844x video:1166kB audio:125kB subtitle:0kB other. Elgato Game Capture HD60 connects to your computer using USB 2. 682 il #1 più venduto in Schede TV esterne. Fixed displaying of different formats of DVB Audio tracks in context Added profile Transport Stream for hardware MPEG encoder NEC (X7) and software encoder InterVideo in recording video/audio mode. This HDMI capture card enables you to turn a HDMI signal into a webcam signal Elgato Camlink 4k alternative satisfaction guarantee shipps fromThis HDMI capture card is a good Elgato Cam Link 4k alternative. System Requirements. Before purchasing the card though, knowing that the card will produce some delay in the Video / Audio feed to the computer, I was a bit concerned about the game Audio delay. Easily capture stunning 1080p with 60 fps, and enjoy incredibly smooth footage in easily manageable files. Instant performance With a slick exterior, streamlined curves and striking LED status strip, HD60 S outperforms in appearance alone. 9% per annum for the delayed payment period and repayment period and is charged to your account at date of order as a lump sum. Read honest and unbiased product reviews from our users. Audio delay, or audio lag is a common issue for gamers who are streaming online from their console to pc through a video capture device like the Elgato HD60 S. Other audio and video sources in streaming applications must be delayed by around 200ms to match the gameplay video and audio of the Elgato Game Capture 4K60 S+. There is only a minimal number of. 0 - 1GC109901004 Con un exterior elegante, curvas sencillas y una llamativa franja de estado LED, el HD60 S ya se distingue de los demás por su aspecto. Si tenés alguna consulta, dejanos una pregunta y a la brevedad estaremos respondiendo. Die Game Capture HD60 S besitzt einen beidseitig verwendbaren USB-C Anschluss und ist kompatibel zu Geräten, die unverschlüsselte Bilder per HDMI ausgeben, etwa Konsolen wie die Playstation 4, Xbox One oder der Wii U, aber auch Kameras oder der PC. Карта видеозахвата Elgato Game Capture HD60 S. Essentially this means that in theory you should be able to play all of your console games from your PC through the capture software without delay due to input lag. Analog Audio In This connects to an analog audio source, using an 3. When i pull the trigger in-game it takes about 0,5 seconds before i actually hear the sound. Con HD60 S è facile eseguire la configurazione e lo streaming grazie ad una semplice connessione USB 3. Migliaia di offerte su chitarre, batterie, tastiere, prodotti per DJ, home recording, spartiti, impianti audio, luci e forniture a negozi ai migliori prezzi. Games Games Details: Elgato Game Capture HD60 S captures raw HD video, and passes it on to your computer to be displayed, encoded, streamed and recorded. Live Commentary: add your voice and easily adjust audio settings. Tienda Oficial ELGATO GAMINGElgato Capturadora Game Streaming Hd60 S Usb 3. 8) Turn on your computer. Analog Audio In This connects to an analog audio source, using an 3. Elgato HD60 Pro Unbox and Setup for same PC recording. webcam och kan hantera flera ljudströmmar samtidigt. RACK - Tuner, Delay, Equalizer, Reverb - Essential tools for getting that quick, good tone. Music tools. 0 port to use the Elgato. com/video/G_GpWsP6fpg/비디오. 0 Elgato Cam Link 4K — Broadcast Live, Record via DSLR, Camcorder, or Action Cam, 1080p60 or 4K at 30 FPS, Compact HDMI Capture Device, USB 3. Abbiamo testato Elgato HD60 S Plus, la nuova scheda di acquisizione esterna con cui il brand di Corsair prova a portare la sua scatola nera nel Finora infatti, giocando con una Elgato HD60 S collegata alla console si era costretti a visualizzare il gioco sul proprio schermo a una risoluzione di. Elgato HD60 S+ Capture Card Video ve Oyun Yakalama Cihazı (Yurt Dışından). 5 secs with the elgato hd60. PlayStation 4, Xbox One, Nintendo Switch (unencrypted HDMI). It’s plug 'n' play taken to the next level. Audio delay, or audio lag is a common issue for gamers who are streaming online from their console to pc through a video capture device like the Elgato HD60 S. Review: Elgato HD60 S. 4) OP's alert audio can also be carried via the USB tether between his capture PC and the MG10XU, meaning he & the stream should be able to hear alerts. Follow our step-by-step guide below. 01 bitrate=1330. tv/ecugopirates. D-RayEntertainment. Abbiamo testato Elgato HD60 S Plus, la nuova scheda di acquisizione esterna con cui il brand di Corsair prova a portare la sua scatola nera nel Finora infatti, giocando con una Elgato HD60 S collegata alla console si era costretti a visualizzare il gioco sul proprio schermo a una risoluzione di. Elgato HD60 S+ Capture Card1080p60 HDR10 Capture, 4K60 HDR10 Zero-lag passthrough, Ultra-Low Latency, PS5, PS4/Pro, Xbox Series X/S, Xbox One X/S, USB 3. Currently people who have bought the HD60 elgato will experience sometype of audi. 7) Reassemble the computer's tower case and plug your cables back in. 2 14,329 ¥19,423. 264 HD60 Pro introduces Instant Gameview, feeding your stream with superior low latency technology. Lastly, move the audio of your video to +00. Got my hands on the Elgato HD60 S+. I have recently moved to a dual PC setup and am having the audio from my capture device gradually desync and delay over time. Now more than ever, the gaming experience is all about sharing. You can have audio on both ends and you can fullscreen the video in the software if you'd like. condition: new. 7 aylar önce. Setting an Audio Delay in OBS. Use a Elgato HD60 Pro (or HD60) Setup: Right click somewhere on your desktop; Click on Nvidia Control Panel; This will open the Nvidia Control Panel. The Elgato HD60 S is a clever little black box that can capture what is happening, right here, right now, right on your monitor. Elgato Smart Power is a battery pack that works with iOS notifications. New dealElgato Game Capture 4K60 Pro MK. I have set everything up far enough to where I can stream video just fine at 720p/60fps. Add your webcam, overlays and more with Stream. (89) 89 product ratings - Elgato HD60 Game Capture Next Generation Gameplay Sharing USB 2. CORSAIR 1GC109901004 Elgato Game Capture HD60 S - stream, record and share your gameplay in 1080p60, superior low latency technology, USB 3. Hey everyone, I have spent hours trying to figure out which settings I need to set my webcam, mic, video capture, etc, to sync up the gameplay footage, webcam, and audio. LEWITT AUDIO INSIDE Headquartered in Vienna, Austria, LEWITT Audio subjects its microphones to rigorous calibration and quality control in world-class testing facilities with seasoned sound engineers. Stream and record, instantly. Si tenés alguna consulta, dejanos una pregunta y a la brevedad estaremos respondiendo. (точная фраза в названии). And the setting you are talking about is audio buffering, not audio delay. A core component for your premium setup, HD60 Pro makes complex production simple, so you can focus on what you do best. Hind kontrollitud capture adapter - PCIe seadme tüüp: Video capture adapter liides Type: PCIe Video Input: HDMI Videorežiims: 480p, 1080i, 576i, 576p, 720/60p, 1080/60p, 1080/30p, 720/30p Digital Video Format: H. Essentially, we delay both webcam and micropho This fast tutorial video shows you how to setup the Elgato HD 60 with OBS (open broadcast software). With Elgato Game Capture HD60 Pro, stunning 1080p capture with 60 fps is only the beginning. 5 secs with the elgato hd60. 8) Turn on your computer. Capture Gameplay in 1080p at 60 fps. With optimum video capture, dedicated encoding, ultra-low latency technology, and more, HD60 Pro is your key to unlocking content of the highest caliber. Elgato Game Capture HD60 Pro - 1080p60 Capture and Passthrough, PCIe Capture Card, Low-Latency Technology Stream and Record. Fixed rising of main audio mixer line under Vista/7/8 on absence of Wave line in the mixer. Elgato Game Capture HD60 S and Resolving Performance. HDMI(pass-through) up to 1080p60. ani = animation. Games Games Details: iPad and Elgato Game Capture HD setup; Gameplay has a short delay in Elgato Game Capture HD software ; Windows PC HDMI audio and Elgato Game Capture HD; USB 2. Audio should work through HDMI/USB, although note that you might suffer a delay using that capture device unless you. How to use the Elgato HD60 Pro Capture Card and OBS Studio to capture raw video from your Playstation PS4, Xbox One Some steps to be able to stream using an Elgato HD60 Pro capture card as a source on OBS studio. Pairing your camera with the Cam Link is simple. How to set up PC Recording with the Elgato Game Capture HD60 S ▽ HD60 S Highlights: - Stream and record your Xbox. With HD60 S+, enjoy your triple-A titles in all their graphic glory, and easily elevate your production value. 0 PCIe x4 PlayStation 4, Xbox One & Xbox 360, Nintendo Switch & Wii U PlayStation 4, Xbox One & Xbox 360, Wii U (Unencrypted HDMI) PlayStation 4, Xbox One & Xbox 360, Unencrypted HDMI HDMI (latency-free pass-through) HDMI (delay-free pass-through) up to 1080p60. item 1 Elgato Game Capture HD60 Pro - Stream and Record in 1080p60, Superior Low Latenc 1 - Elgato Game Capture HD60 Pro - Stream and Record in 1080p60, Superior Low Latenc AU $320. Adjusting Audio Delay in XSplit Broadcaster. However, in OBS, I have the Elgato audio set to output (to the stream) as well as monitor. aspx?manuf_id=114. Streamlabs OBS Audio Delay - How to FIX Audio Delay for Streamers (OBS too). New dealElgato Game Capture 4K60 Pro MK. Sometimes it records fine and then other times with the same settings i try to open the game play and it says; ERROR 2002 - a bad public movie atom was found in the movie. Elgato audio sync fix. Toote vastavus: Elgato Game Capture HD60 Pro (PCIe). ca: Computers & Tablets. Thankfully, the Elgato Elgato 4K60 Pro is worth the hassle. Give the tempo and the time signature. MEZE AUDIO. I have recently purchased an Elgato capure card that I am using to stream and record Vainglory games from my iPad and iPhone. From old school PCM42-style effects like filtering, flanging and phasing to slapback echo, ping-pong and tempo-sync with modulation, H-Delay analog delay plugin delivers. Enjoy the best sound possible for movies, music, and TV shows with Dolby TrueHD lossless audio built into your home theater, music, movies, and other Unlike most audio formats, Dolby® TrueHD is 100 percent lossless. First off I'll say that I did have audio issues at first I think Elgato have been incredibly unlucky with the timing of release for the card, with various I returned to my HD60. Your skills. Be Proactive. Today's video is how to fix the audio delay that is on the elgato HD 60, this will fix it so when ever. Instant performance With a slick exterior, streamlined curves and striking LED status strip, HD60 S outperforms in appearance alone. Tipo de capturadora de video. For example, if you set it to 60% for a 1Gb file, we. (точная фраза в названии). Pero la potencia real está por dentro. If anyone confirms let me know and I'll update the description. Elgato HD60S Video Capture Elgato Game Capture HD60 S - System Requirements and Technical Specifications System Requirements PC: Windows 10 (64-bit) 4th generation quad‑core Intel Core i5 CPU (i5-4xxx or comparable) Intel HD or NVIDIA GeForce GTX. Elgato Game Capture HD60 Pro. My quick fix is restarting the Elgato by switching to a non-Elgato OBS scene and then switching back, which takes about 10 seconds and interrupts the stream. The Elgato HD60 Pro is a PCI-e capture card that is used for PC streaming. DA: 94 PA: 13 MOZ Rank: 26. Марченко Алла Максимовна Дом со сверчком, Домашние стихи, Кассетный кондиционер Mitsubishi Electric SLZ-M60FA/SUZ KA60VA6, Крем с пробиотиками и зеленым чаем Eyenlip, Худи ВОВА-MINECRAFT Женские, Фильтр воздушный салона Delphi TSP0325246C, Матрас Zzic. Once you have added the Elgato source in to Streamlabs OBS, you will notice that in the Mixer your Elgato has automatically been added as an audio device. Hey everyone, I have spent hours trying to figure out which settings I need to set my webcam, mic, video capture, etc, to sync up the gameplay footage, webcam, and audio. By default, there may be an audio delay between what you are saying during streaming, into a microphone, and what's actually appearing in the video stream. It connects to your computer using USB 3. Posted on March 25, 2021 by. In some instances you might need to add an audio delay to sync up the video from a camera with a microphone input. After geting used to the software and seting most things up i tried connect the elgato hd60 S to the program and it would not connect at first. I have used pass-through setups before with other devices that claimed to have no lag, and the lag was almost nonexistent, but a very slight delay could be detected. As long as your device outputs HDMI (Such as Xbox, Play Station, Wii U, Blu-Ray, etc. Elgato HD60 Pro audio desync/delay with PS4 Question So I have an issue with the game audio desyncing/delay after about 40 min of recording or streaming with my PS4, the audio is about 0,5 sec behind the picture. - Al comprar, aceptás todos los terminos y condiciones establecidos por MercadoLibre. I know with the normal Elgato, it's around 1500ms. Dual PC Stream setup + Elgato HD60 S | High--Quality Stream tutorial. Before we know Elgato hd60 s setup, we have to need to know at first Elgato system requirements. Hoping someone might have experienced the same nightmarish blasting of static and found a way to fix it. Elgato Game Capture HD60 S HD Game Recorder. Add your webcam, overlays and more with Stream. Elgato Game Capture HD60 Manual Introduction You constantly push the limits, and so should the gaming gear that powers you. Kochfelder. Stream and record your games without hassle thanks to Instant Gameplay, with low-latency technology – a 40 Mbps bitrate keeps your video smooth. I just say 1,2,3 when I change a menu item. CommanderKrieger - der Taucher von YouTube. There is only a minimal number of. 264 Audio Input Support. 000 Bit gestellt. Tutorial: How to Install VST Plugins. You may need to experiment to find the correct delay value settings, as different devices, computers, etc may affect the delay. Elgato Stream Deck XL - Enhanced Stream Control with 32 Customizable LCD Keys for Windows 10 and MacOS 10. First off, it means that there is practically zero lag. IDR 3,049,000 Ex Tax: IDR 3,049,000. I have recently moved to a dual PC setup and am having the audio from my capture device gradually desync and delay over time. Other audio and video sources in streaming applications must be delayed by around 200ms to match the gameplay video and audio of the Elgato Game Capture 4K60 S+. 4 yıl önce. Before we know Elgato hd60 s setup, we have to need to know at first Elgato system requirements. As mentioned the Elgato HD60 Pro is a PCI-E capture card which means it doesn't get bottle necked by the transfer limitations of USB. Stunning 1080p60 quality leaves no doubt that you’re serious about your craft, while a state-of-the-art, reversible USB-C connector gets you hooked up in a snap. Showing the single result. 0 Elgato Cam Link 4K — Broadcast Live, Record via DSLR, Camcorder, or Action Cam, 1080p60 or 4K at 30 FPS, Compact HDMI Capture Device, USB 3. Model Number: 1GC109901004. I have used pass-through setups before with other devices that claimed to have no lag, and the lag was almost nonexistent, but a very slight delay could be detected. sehr Dieses kann man entweder über den Miniklinken-Eingang der beiden Modelle oder über ein Audio-Interface und ggf. All the same issue, so throwing money at the problem did nothing for me. 0 connection that feeds your stream with superior low latency technology. Record and stream your PlayStation 4, Xbox One and Xbox 360, or Wii U gameplay and share your journey with friends, fans and generations to come. A passagem com atraso zero permite que você jogue com resolução de até 4K enquanto captura e transmite vídeos de jogabilidade em Full HD. Today's video is how to fix the audio delay that is on the elgato HD 60, this will fix it so when ever your streaming or doing. Get creating. The 6 Best Elgato Game Capture of 2020 1,805 Ratings 5/5 Share on facebook Facebook Share on google Google+ Share on twitter Twitter Share on linkedin LinkedIn Elgato Game Capture HD60 S – Stream and Record in 1080p60, for PlayStation 4, Xbox One & Xbox 360 Stream and record your finest gaming moments Stunning […]. Best Free Delay VST Plugins. Read reviews and buy Elgato Game Capture HD60 S at Target. Stream and record Xbox, PlayStation, or Wii U gameplay with Elgato Game Capture HD60 Pro. The gaming experience is all about sharing. You’re live on Twitch or YouTube in no time, feeding your stream with ultra-low latency Instant Gameview technology. With black electrogalvanized-steel casing accentuated by sharp, geometric edges, slick grilles and prominent port labels, this PCIe card boosts the benchmark for head-turning. Read the definitive guide of hi-res audio (HD music) : Where are the free download and online streaming sites? Is high resolution really bring highest sound quality? Is upsampling reasonable? Hi-Res vs 44. tv/ecugopirates. Elgato Game Capture HD60 Pro. Stream and record Xbox, PlayStation, or Wii U gameplay with Elgato Game Capture HD60 Pro. Bugünlerde en popüler yöntem NVIDIA'nın GeForce Experinece ile birlikte gelen ShadowPlay aracı. Sorry if this is poorly explained, but basiclly i have HD60 connected to a monitor without speakers, HD60 connected to PS4 & PC, Headset plugged into PC to capture sound through "Output Desktop Audio (WaveOut). 0844x video:1166kB audio:125kB subtitle:0kB other. Elgato HD60 S - Camera to Computer Video Capture Device. Elgato'nun HDMI üzerinden görüntü yakalama cihazı Game Capture HD60 S'e yakından bakıyoruz. Find helpful customer reviews and review ratings for Elgato Game Capture HD60, for PlayStation 4, Xbox One and Xbox 360, or Nintendo Switch gameplay, Full HD 1080p 60fps at Amazon. extremeaudioshop. 0 (Externo), Negro 11,994 $3,746. Corsair Elgato Game Capture HD60 S +, Capture Card for Recording in 1080p60 HDR10 and Delay-Free 4K60 HDR10 Passthrough, Ultra-Low Latency Technology - Black | 10GAR9901. We’ve been using it for weeks now and can’t recommend it enough. The software comes with built in streaming overlays, allows for audio throughput to your. I don't have a HD60 or HD60S (I have a HD60 Pro) but it's just as Altariot mentioned. 3) In the General Settings window, click on "Audio". In the time; Change the audio track speed to 99. Elgato Cam Link 4K (UHD) HDMI USB Camera Capture 1080 60p UHD 30p 6321978 Editing, Digital Non Linear Video Converters HD Converters USB UHD cameras caps videos - Vistek - Product Detail Toronto, Calgary, Edmonton, Ottawa, Missisauga Canada. The new capture device can stream 1080p HDR gameplay at 60 frames per second while also passing through a 4K60 HDR signal to your TV. Allerdings gibt es wenn ich zmb. Before purchasing the card though, knowing that the card will produce some delay in the Video / Audio feed to the computer. (точная фраза в названии). oz Comes with:Elgato Game Capture HD60S, USB cable, HDMI cable. With decades of experience in audio visual technology, Elgato engineers premium capture cards, microphones, broadcast controllers, mounting solutions, and studio accessories that empower anyone to produce professional content for worldwide audiences on Twitch, YouTube and Facebook. HiFi Audio Design. ArtistAnimation(fig, ims, interval=50, repeat_delay cpb: bitrate max/min/avg: 0/0/0 buffer size: 0 vbv_delay: -1 Stream #0:1(eng): Audio: aac (LC) time=00:00:08. 4) In the Audio Settings, check the "Delay" box under "System Sound" and "Microphone" and set the value for both to 650ms, which is the average delay of the Elgato Game Capture HD60. Med detta kort kan du spela in ditt gameplay i perfekt kvalitet 1080p upplösning och 60fps. 2 14,329 ¥19,423. On the main screen, click on However, the video and audio is completely off-sync. 8) Turn on your computer. D-RayEntertainment. Simply select your mic and let the show begin. This may work for the S too, have no idea. The Elagto HD60 S hooks up within. 264 HD60 Pro introduces Instant Gameview, feeding your stream with superior low latency technology. It includes the same excellent features seen on the HD60 S, including Flashback Recording, as well as passthrough at up to 1080p240 or. Item: Elgato HD60 Pro Age: 2 years Price: 1500 Warranty: No Packaging: Yes Condition: Good Location: Cape Town Reason: No use for it anymore since moving to. In the time; Change the audio track speed to 99. During my testing today, I tried removing the splitter from the equation and had the TV connection run through the Elgato's HDMI out, and the picture was unstable and the audio sub-par. HD movies at the smallest file size. My webcam is the default cam built into my laptop and the mic is the default mic as well. Stunning 1080p quality with 60 fpsState-of-the-art USB 3. Yet, from time to time I find it necessary to capture direct feed video straight from source. ArtistAnimation(fig, ims, interval=50, repeat_delay cpb: bitrate max/min/avg: 0/0/0 buffer size: 0 vbv_delay: -1 Stream #0:1(eng): Audio: aac (LC) time=00:00:08. Elgato Game Capture HD60 S HD Game Recorder. Model 1GC109901004. Find helpful customer reviews and review ratings for Elgato HD60 Pro1080p60 Capture and Passthrough, PCIe Capture Card, Low-Latency Technology, PS5, PS4, Xbox Series X/S, Xbox One at Amazon. QR Code Link to This Post. Make an offer!. Elgato Game Capture 4K60 S+ has a delay of around 200ms. hd60 | hd60s | hd60 pro | hd60s drivers | hd600 for gaming | hd60 elgato | hd60s macbook | hd60s+ video delay | hd600 vs 6xx | hd60 pro elgato | hd60 vs hd60s |. Spoilers: It's definitely our game capture device of choice!. 0 usb, just need to put my audio on the. Shop online for all your home improvement needs: appliances, bathroom decorating ideas, kitchen remodeling, patio furniture, power tools, bbq grills, carpeting, lumber, concrete, lighting, ceiling fans and more at The Home Depot. Elgato HD60 S Capture Card, 1080p 60 Capture, Zero-Lag Passthrough, Ultra-Low Latency, PS5, PS4, Xbox Series X/S, Xbox One, Nintendo Switch, USB 3. Give the tempo and the time signature. Карта видеозахвата Elgato Game Capture HD60 S по выгодной цене на yawelcome. I hope you enjoyed the video. Hind kontrollitud capture adapter - PCIe seadme tüüp: Video capture adapter liides Type: PCIe Video Input: HDMI Videorežiims: 480p, 1080i, 576i, 576p, 720/60p, 1080/60p, 1080/30p, 720/30p Digital Video Format: H. On the left sidebar, click on Set up multiple displays; In the select displays you want to use box, you should see your main monitor, and one called Elgato. This may work for the S too, have no idea. For all the people looking for a capture card that doesn't have a delay, it doesn't exist. Before purchasing the card though, knowing that the card will produce some delay in the Video / Audio feed to the computer, I was a bit concerned about the game Audio delay. Product no 990589978. Games Games Details: Elgato Game Capture HD60 S captures raw HD video, and passes it on to your computer to be displayed, encoded, streamed and recorded. Essentially, we delay both webcam and microphone audio to sync up with the Elgato output, which removes the delay. PROFESSIONAL. 264 hardware encoding provides you with incredibly smooth footage in easily manageable files. Parece q os encaixe são frágeis. HD60 S is an external solution that gets you capturing superb 1080p60 gameplay in a snap. Here's an example about 4 hours into a stream test. I don't have any filters, and the audio settings match an additional audio source playing an MP3 (which does not exhibit the same problems). System Requirements PC: Windows 10 (64-bit) 4th generation quad‑core Intel Core i5 CPU (i5-4xxx or comparable) Intel HD or NVIDIA GeForce GTX 600 series graphics (or better) 4 GB RAM, built-in USB 3. Elgato HD60s. fr Livraison & retours gratuits possibles (voir conditions). Elgato HD60 Pro. The new capture device can stream 1080p HDR gameplay at 60 frames per second while also passing through a 4K60 HDR signal to your TV. It's important to pay Audio travels faster than video so you'll have to delay the audio via the advanced audio properties of the audio source in OBS. Sometimes it records fine and then other times with the same settings i try to open the game play and it says; ERROR 2002 - a bad public movie atom was found in the movie. Audio should work through HDMI/USB, although note that you might suffer a delay using that capture device unless you. Thus, synching these two things is imperative to getting a strong mix. Vor 4 years. Elgato HD60 Pro Review. As mentioned the Elgato HD60 Pro is a PCI-E capture card which means it doesn't get bottle necked by the transfer limitations of USB. We recommend you opt for Express Post as these. Shop online for all your home improvement needs: appliances, bathroom decorating ideas, kitchen remodeling, patio furniture, power tools, bbq grills, carpeting, lumber, concrete, lighting, ceiling fans and more at The Home Depot. # define VIDEO_CAPTURE_FILTER_NAME " Elgato Game Capture HD " # define VIDEO_CAPTURE_FILTER_NAME_L L " Elgato Game Capture HD " # define ELGATO_VCF_VIDEO_PID 100 //!< video PID in MPEG-TS stream # define ELGATO_VCF_AUDIO_PID 101 //!< audio PID in MPEG-TS stream //! Interface version: //! - 1st digit: interface version (e. The Elgato Game Capture HD60 Pro is a PCIe add-on card that grabs unencrypted HDMI singal from your game consoles, tablets, camcorders and more. Su puesta en marcha es Características y ventajas de la capturadora ELgato Game Capture HD60S: Ofrece una espectacular calidad de grabación y streaming en vídeo a Full HD. Got my hands on the Elgato HD60 S+. Elgato GameCapture HD 60 Pro - Unboxing, Einbau und mehr. Elgato Game Capture HD60 S. The Elgato HD60S includes Stream Command, which lets you add your webcam, overlays and more The former is USB-C to USB 3. 2 14,329 ¥19,423. Perfect your content You seek excellence and strive for precision. Elgato HD60. I tried delaying the mic from anywhere between 650-1400 as well as adding a video filter on my webcam to match. Toote vastavus: Elgato Game Capture HD60 Pro (PCIe). 264 hardware encoding provides you with incredibly smooth footage in easily manageable files. Manufacturer. Check out Elgato product page to see more details on the HD60s here: https Thanks to the fine folks at Elgato, we've given the Elgato HD60s a thorough going over. We recommend you opt for Express Post as these. подписчиков. Signals protected by HDCP can't be used. 264 hardware encoding, PCIeをパソコン・周辺機器ストアで、いつでもお安く。. Be sure to check out some of our streaming gameplay using the HD60 S on YouTube. Delay Payments for 12 months with Buy Now Pay Later when you spend £50 or more. I was also able to pickup the capture device locally so th. A1TriggerGate is a Sequenced Gate plugin to chop up any incoming audio signal. 0 Elgato Cam Link 4K — Broadcast Live, Record via DSLR, Camcorder, or Action Cam, 1080p60 or 4K at 30 FPS, Compact HDMI Capture Device, USB 3. The pro standard for vocal echo. Find helpful customer reviews and review ratings for Elgato Game Capture HD60, for PlayStation 4, Xbox One and Xbox 360, or Nintendo Switch gameplay, Full HD 1080p 60fps at Amazon. With HD60 Pro, stunning 1080p capture with 60 fps is only the beginning. Elgato Game Capture HD60 S-Oyun Yakalama Kart. # define VIDEO_CAPTURE_FILTER_NAME " Elgato Game Capture HD " # define VIDEO_CAPTURE_FILTER_NAME_L L " Elgato Game Capture HD " # define ELGATO_VCF_VIDEO_PID 100 //!< video PID in MPEG-TS stream # define ELGATO_VCF_AUDIO_PID 101 //!< audio PID in MPEG-TS stream //! Interface version: //! - 1st digit: interface version (e. Ou vc compra o cabo da elgato ou faz gambiarra que eu fiz. Elgato game capture HD(60). Dual PC Stream setup + Elgato HD60 S | High--Quality Stream tutorial. I managed to get the visuals working OK via the link, but there's that frustrating audio delay due to the NDI (something I've read about before) Find helpful customer reviews and review ratings for Elgato Game Capture HD60 Gameplay Sharing for Playstation 4, Xbox One and Xbox 360, 1080 p Quality with 60 fps at Amazon. I have used pass-through setups before with other devices that claimed to have no lag, and the lag was almost nonexistent, but a very slight delay could be detected. كن الافضل قطعة تسجيل الالعاب تستخدم تكنلوجيا. Stream and record your Xbox, PlayStation or Wii U gameplay and share your journey with friends, fans and generations to come. De Elgato HD60 S is een game capture met streaming als specialiteit. Question Is my Elgato 4k60pro mk. Elgato HD60 Pro Unbox and Setup for same PC recording. For PlayStation 4 on the PlayStation 4, a GameFAQs message board topic titled "Elgato HD60 S suddenly dropped in audio quality. Into a market like this, Elgato has released its newest game capture equipment, the Elgato Game Capture HD60. ►How To Record Your PC Using The Elgato HD60. 2 - 4K60 HDR10 Capture and Passthrough PCIe Capture Card Superior Low Latency Techn.